Boys Halfway House - Incident Teaser

GeneralUnique ID : 192700586523084910257482504472280795662 (0x90F8C871F08515E3B81762F08CF98A0E)
Complete name : G:\Boys Halfway House - Incident Teaser.mkv
Format : Matroska
Format version : Version 2
File size : 327 MiB
Duration : 5mn 13s
Overall bit rate mode : Variable
Overall bit rate : 8 736 Kbps
Encoded date : UTC 2019-03-23 15:54:06
Writing application : mkvmerge v5.6.0 ('Kenya Kane') built on May 27 2012 16:44:04
Writing library : libebml v1.2.3 + libmatroska v1.3.0
Cover : Yes
Attachments : cover.jpg

Video
ID : 1
Format : MPEG Video
Format version : Version 2
Format profile : [email protected]
Format settings, BVOP : Yes
Format settings, Matrix : Default
Format settings, GOP : M=3, N=15
Codec ID : V_MPEG2
Codec ID/Info : MPEG 1 or 2 Video
Duration : 5mn 13s
Bit rate mode : Variable
Bit rate : 8 178 Kbps
Maximum bit rate : 12.0 Mbps
Width : 1 280 pixels
Height : 720 pixels
Display aspect ratio : 16:9
Frame rate mode : Constant
Frame rate : 30.033 fps
Original frame rate : 29.970 (30000/1001) fps
Color space : YUV
Chroma subsampling : 4:2:0
Bit depth : 8 bits
Compression mode : Lossy
Bits/(Pixel*Frame) : 0.295
Time code of first frame : 00:00:00;00
Time code source : Group of pictures header
GOP, Open/Closed : Open
GOP, Open/Closed of first fram : Closed
Stream size : 306 MiB (94%)
Default : Yes
Forced : No

Audio
ID : 2
Format : AC-3
Format/Info : Audio Coding 3
Mode extension : CM (complete main)
Format settings, Endianness : Big
Muxing mode : Header stripping
Codec ID : A_AC3
Duration : 5mn 13s
Bit rate mode : Constant
Bit rate : 384 Kbps
Channel(s) : 2 channels
Channel positions : Front: L R
Sampling rate : 48.0 KHz
Frame rate : 31.250 fps (1536 spf)
Compression mode : Lossy
Stream size : 14.4 MiB (4%)
Default : Yes
Forced : No

2021188

Comments